头像
4h4h270
帖子: 163
注册时间: 2011-04-10 17:59

Re: [置顶] L-Smash standalone muxer(03/13 r562)

2012-03-23 12:27

Shir1yn 写了:taro大

這個muxer是你編寫的嗎?(好奇..........)

我想問,每次更新都沒upgrade log ?


P.S:我現在都用這個封裝mp4了!
这个是11区开发的,用于替代gpac,稳定性/兼容性好于gpac

Shir1yn
帖子: 106
注册时间: 2012-03-22 19:29

Re: [置顶] L-Smash standalone muxer(03/13 r562)

2012-03-23 21:21

4h4h270 写了:
Shir1yn 写了:taro大

這個muxer是你編寫的嗎?(好奇..........)

我想問,每次更新都沒upgrade log ?


P.S:我現在都用這個封裝mp4了!
这个是11区开发的,用于替代gpac,稳定性/兼容性好于gpac
謝小4解答

我一直以為這是taro大寫的,那就太厲害的

以前也一直用gpac!封裝的某些片在手機裡撥放時會突然跳出,感覺就是gpac的問題!

不管怎樣,投身l-smash了

再問,11區是?(小白問題了)

头像
msg7086
帖子: 598
注册时间: 2011-02-19 0:49

Re: [置顶] L-Smash standalone muxer(03/13 r562)

2012-03-23 23:48

日本
Delogo LGD Collections 各种台标下载 | Home Of VapourSynth Evolution

<回答が無い理由>
1. 誰も知らない
2. 質問文が意味不明
3. 知ってるが、お前の態度が気に入らない
4. 良いボケが思いつかない

Shir1yn
帖子: 106
注册时间: 2012-03-22 19:29

Re: [置顶] L-Smash standalone muxer(05/13 r592)

2012-05-27 13:09

問下taro大

alternate-group 這個參數是不是指定預設音訊軌的?

還是其他作用?

DUCANA
帖子: 7
注册时间: 2011-05-25 17:44

Re: [置顶] L-Smash standalone muxer(06/13 r593)

2012-06-28 11:58

压一个DVDRIP出现了一小瑕疵 就是音轨用NERO AAC压制出来是m4a 然后muxer是不认m4a的 于是先把raw.264用muxer封成mp4
再用remuxer把raw.mp4和raw.m4a和chapter.txt封装 搞定后用播放器预览
用LAV Splitter分离mp4 一切正常
用potplayer自带分离器分离mp4 chapter信息被当成字幕了 Orz...
查看参数发现remuxer多了一行Text #3轨道...就是把chapter当成字幕轨...
然后试试把音频m4a抽出aac 再用muxer封装raw.264 raw.aac chapter.txt
没有那一行字幕轨 所有播放器一切正常... {:cat_5}

ldandy006
帖子: 5
注册时间: 2013-07-20 20:09

Re: [置顶] L-Smash standalone muxer(06/07 r747)

2013-07-31 11:12

老大请教,
相同视频和音频流用L-Smash standalone muxer和MP4boX分别封装成MP4 为什么有所区别

L-Smash standalone muxer封装的 音频信息部分多了如下信息:
Delay relative to video:-3s 337ms

而MP4boX封装的没有此项信息

实际播放2个mp4影音都是同步的 没有延迟
为什么L-Smash standalone muxer显示有延迟 实际却没有
而且换了不同视频音频测试 只要L-Smash standalone muxer封装的都会显示有延迟,而且数字相同,都是-3s 337ms
请问这个正常么?

注:视频是x264 tmod bit压制 音频都是qaac压制的TVBR的m4a

头像
upyzl
帖子: 446
注册时间: 2010-12-25 18:44
来自: 湘/京
联系: 网站

Re: [置顶] L-Smash standalone muxer(01/04 r898)

2014-04-10 18:18

(感觉没必要开新帖,咱就直接借香芋菊苣宝地发个了,主要最开始也是就这个直接问的……)

之前更新的时候发现个问题
用remuxer封装video only的mp4及m4a成video+audio的mp4后,x264写入的SEI不会被MPC-HC内置的MediaInfo识别(见doom9
估计MPC-HC那边也不大会弄这个,于是还是自己改了下L-SMASH(原理是去掉L-SMASH在文件尾追加的Tag信息(顺便可以少30字节

另外重新打开了HEVC Remux功能(patch来自jeeb@github;这个功能关闭期间L-SMASH也是在更新HEVC模块的;等不久后正式发布ISO/IEC 14496-15第3版标准了L-SMASH官方肯定会重开的)

下载(仅32bit):
L-SMASH_Muxer-git-r898(61fcd5e)-uMod.7z
(256.13 KiB) 下载 454 次
patch(普通用户就无视吧):
lsmash-umod.zip
(1.43 KiB) 下载 103 次

Shir1yn
帖子: 106
注册时间: 2012-03-22 19:29

Re: [置顶] L-Smash standalone muxer(01/04 r898)

2014-04-18 19:11

upyzl 写了:(感觉没必要开新帖,咱就直接借香芋菊苣宝地发个了,主要最开始也是就这个直接问的……)

之前更新的时候发现个问题
用remuxer封装video only的mp4及m4a成video+audio的mp4后,x264写入的SEI不会被MPC-HC内置的MediaInfo识别(见doom9
估计MPC-HC那边也不大会弄这个,于是还是自己改了下L-SMASH(原理是去掉L-SMASH在文件尾追加的Tag信息(顺便可以少30字节

另外重新打开了HEVC Remux功能(patch来自jeeb@github;这个功能关闭期间L-SMASH也是在更新HEVC模块的;等不久后正式发布ISO/IEC 14496-15第3版标准了L-SMASH官方肯定会重开的)

下载(仅32bit):
L-SMASH_Muxer-git-r898(61fcd5e)-uMod.7z
patch(普通用户就无视吧):
lsmash-umod.zip
追加的Tag信息是指哪些?

另外請想問一下新版remux(mp4+m4a)後顯示的Writing application是qaac(audio是用qaac轉碼的),而不是l-smash,這個在remux時能否用參數指定?

头像
upyzl
帖子: 446
注册时间: 2010-12-25 18:44
来自: 湘/京
联系: 网站

Re: [置顶] L-Smash standalone muxer(01/04 r898)

2014-04-19 11:16

Shir1yn 写了:追加的Tag信息是指哪些?
见我贴里给的doom9链接HEX编辑器里选中的那部分
Shir1yn 写了:另外請想問一下新版remux(mp4+m4a)後顯示的Writing application是qaac(audio是用qaac轉碼的),而不是l-smash,這個在remux時能否用參數指定?
没注意以前具体是怎样的,也没研究过
另外……我倒是很满意这样写,可以表明aac的相关信息(而且我记得以前在HydrogenAudio有说明过AAC Encoder是不能像lame那样的MP3 Encoder把这些信息写到audio stream里的,只能写到container的header上(大致是这样的意思,具体是怎么说的忘了

Shir1yn
帖子: 106
注册时间: 2012-03-22 19:29

Re: [置顶] L-Smash standalone muxer(01/04 r898)

2014-04-20 0:51

upyzl 写了:见我贴里给的doom9链接HEX编辑器里选中的那部分
好像我remux出來的mp4沒有您HEX裡面的資訊喔

代码: 全选

General Complete name : Format : MPEG-4 Format profile : Base Media / Version 2 Codec ID : mp42 File size : 57.8 MiB Duration : 3mn 30s Overall bit rate mode : Variable Overall bit rate : 2 302 Kbps Encoded date : UTC 2014-04-19 10:20:28 Tagged date : UTC 2014-04-19 10:20:28 Writing application : qaac 2.35, CoreAudioToolbox 7.9.5.0, AAC-LC Encoder, TVBR q127, Quality 96 Video ID : 1 Format : AVC Format/Info : Advanced Video Codec Format profile : High@L4.1 Format settings, CABAC : Yes Format settings, ReFrames : 4 frames Codec ID : avc1 Codec ID/Info : Advanced Video Coding Duration : 3mn 30s Bit rate : 1 970 Kbps Maximum bit rate : 3 345 Kbps Width : 624 pixels Height : 448 pixels Display aspect ratio : 1.393 Frame rate mode : Constant Frame rate : 23.976 fps Color space : YUV Chroma subsampling : 4:2:0 Bit depth : 8 bits Scan type : Progressive Bits/(Pixel*Frame) : 0.294 Stream size : 49.4 MiB (86%) Language : English Encoded date : UTC 2014-04-19 10:20:28 Tagged date : UTC 2014-04-19 10:20:28 Audio ID : 2 Format : AAC Format/Info : Advanced Audio Codec Format profile : LC Codec ID : 40 Duration : 3mn 30s Bit rate mode : Variable Bit rate : 329 Kbps Channel(s) : 2 channels Channel positions : Front: L R Sampling rate : 48.0 KHz Compression mode : Lossy Stream size : 8.25 MiB (14%) Language : English Encoded date : UTC 2014-04-19 10:20:28 Tagged date : UTC 2014-04-19 10:20:28
upyzl 写了: 没注意以前具体是怎样的,也没研究过
另外……我倒是很满意这样写,可以表明aac的相关信息(而且我记得以前在HydrogenAudio有说明过AAC Encoder是不能像lame那样的MP3 Encoder把这些信息写到audio stream里的,只能写到container的header上(大致是这样的意思,具体是怎么说的忘了
以前的版本就是沒這個info:

代码: 全选

Writing application : qaac 2.35, CoreAudioToolbox 7.9.5.0, AAC-LC Encoder, TVBR q127, Quality 96
其他不變。

這樣寫是適合m4a音訊檔,可是我這個是mp4視訊檔,這樣寫就不合適了

還想請教一下,以下兩組format有什麼特別之處?是不是與相容性有關?

代码: 全选

Format profile : Base Media / Version 2 Codec ID : mp42

代码: 全选

Format profile : Base Media Codec ID : isom

回到 “封装容器 / Container muxer and demuxer”